ettv anal arrow español the rookie tushy 18.12 1080p.mp4-ktr supernatural 2018 ita wwe seal team s02e12 The Gifted etrg porn ita bohemian A Star is born the walking dead hindi SEAL Team fgt evo marvel week The Big Bang Theory bohemian rhapsody ita star trek discovery español 1080p YIFY dtone ddr Etrg ethd great british bake off s09e10 Chicago PD S06E10 modern family bohemian rhapsody venom LUCIFER aquaman bumblebee mom manifest 1080p 2018 2160p Chicago pd UHD big bang theory español ita 2018 Vikings S05E17 the flash bbc vikings s05 luther 1080P it ıt 2017 arrow etmovies Ncis XXX game of thrones aquaman ita modern family s10e11 0 First Man Fear the walking dead YOU titans Star Trek Discovery tushyraw 1080p.mp4-ktr vikings doctor who 
Warning! Do not Download Without a VPN!
Your IP Address is .   Location is
Download and surf securely, stream unlimited and protect your personal data!
We strongly recommend using SpyOFF VPN!
Become Anonymous with SpyOFF
ETTV Recommended TV Shows
Gotham.S05E02.WEB.x264-TBS[ettv] torrent
The.Orville.S02E03.WEB.x264-TBS[ettv] torrent
Law.and.Order.SVU.S20E11.HDTV.x264-LEFT4HD[ettv] torrent
Future.Man.S02.720p.WEBRip.X264-SCENE[ettv] torrent

ETTV Recommended SD
Welcome.Home.2018.BRRip.XViD-ETRG torrent
Pledge.2019.HDRip.XViD-ETRG torrent
SGT.Will.Gardner.2019.HDRip.XviD.AC3-EVO torrent
The.Last.Laugh.2019.HDRip.XviD.AC3-EVO torrent

ETTV Recommended HD
Time.Freak.2018.BluRay.1080p.HEVC.DTS-HD.MA5.1-DTOne torrent
Solis 2018 1080p GER Blu-ray HEVC DTS-HD MA 5 1-DTOne torrent
Speed Kills 2018 1080p Blu-ray HEVC DTS-HD MA 5 1-DTOne torrent
The Old Man And The Gun 2018.Multi.Bluray.1080p.x265.DTS-HDMA.5.1-DTOne torrent

ETTV Recommended UHD
Serenity.2005.Multi.UHD.2160p.Bluray.x265.HDR.DTS-HDMA.7.1.[En+Hi]-DTOne torrent
The.Hitmans.Bodyguard.2017.Multi.2160p.UHD.BluRay.x265.HDR.Atmos.7.1.[En+Hi]-DTOne torrent
How To Train Your Dragon 2010.Multi.2160p.UHD.Bluray.x265.DTS-X.7.1.[En+Hi+]-DTOne torrent
How To Train Your Dragon - 2 2014.Multi.2160p.UHD.Bluray.x265.DTS-X.7.1.[En+Desi+]-DTOne torrent

ETTV Recommended Cam
Bumblebee 2018 NEW HDTS x264 AC3-ETRG torrent
Aquaman.2018.BLURRED.HDTC.x264.AC3-ETRG torrent
Once Upon a Deadpool 2018 NEW 720p HDCAM-1XBET torrent
Holmes.&.Watson.HDCAM.XViD.AC3-ETRG torrent

ETTV Recommended Foreign
Padmaavat 2018.GER.Blu-Ray.1080p.HEVC.TrueHD.7.1-DTOne torrent
Tera Intezaar.2017.1080p.AMZN.WeB.DL.H264.DDP.5.1.DTOne torrent
Pihu.2018.720p.WeB.DL.H264.AAC.2.0.DTOne torrent
Sui Dhaaga - Made in India.2018.1080p.AMZN.WeB.DL.H264.DDP.5.1.DTOne torrent


Download Torrent "Halloween (2018) x 1616 (2160p) HDR 5.1 x265 10bit Phun Psyz"

IMDB Details
Description:

Laurie Strode confronts her long-time foe Michael Myers, the masked figure who has haunted her since she narrowly escaped his killing spree on Halloween night four decades ago.

Genre:

Horror, Thriller

Download Torrent (Magnet)
Download Torrent (File)
Seeds: 2
Leechers: 0
Completed:
Last Checked: 11-01-2019 20:37:46


Details
Title:Halloween (2018) x 1616 (2160p) HDR 5.1 x265 10bit Phun Psyz
Description:
www.imdb.com/title/tt1502407/

Laurie Strode confronts her long-time foe Michael Myers, the masked figure who has haunted her since she narrowly escaped his killing spree on Halloween night four decades ago.

Source: FGT 4K HDR Remux







Format                      : Matroska
Format version              : Version 4 / Version 2
File size                   : 2.71 GiB
Duration                    : 1 h 45 min
Overall bit rate            : 3 669 kb/s

Video
ID                          : 1
Format                      : HEVC
Format/Info                 : High Efficiency Video Coding
Format profile              : Main [email protected]@High
Codec ID                    : V_MPEGH/ISO/HEVC
Duration                    : 1 h 45 min
Bit rate                    : 3 276 kb/s
Width                       : 3 840 pixels
Height                      : 1 616 pixels
Display aspect ratio        : 2.40:1
Frame rate mode             : Constant
Frame rate                  : 23.976 (24000/1001) FPS
Color space                 : YUV
Chroma subsampling          : 4:2:0
Bit depth                   : 10 bits
Bits/(Pixel*Frame)          : 0.022
Stream size                 : 2.42 GiB (89%)

Audio
ID                          : 2
Format                      : AC-3
Format/Info                 : Audio Coding 3
Commercial name             : Dolby Digital
Codec ID                    : A_AC3
Duration                    : 1 h 45 min
Bit rate mode               : Constant
Bit rate                    : 320 kb/s
Channel(s)                  : 6 channels
Channel layout              : L R C LFE Ls Rs
Sampling rate               : 48.0 kHz
Frame rate                  : 31.250 FPS (1536 SPF)
Bit depth                   : 16 bits
Compression mode            : Lossy
Stream size                 : 242 MiB (9%)
Title                       : Surround
Language                    : English

Text 
Language                    : English
Language                    : English
Language                    : Spanish
Language                    : French
Language                    : Spanish
Language                    : French
Default                     : No
Forced                      : No
Category:Movies > UltraHD/4K
Lang:English  English
Total Size:2.71 GB
Info Hash:f555249a29df3698b5598b7efc2ca74c87e7559d
Added By:phunpsyz
Date Added:11-01-2019 20:37:42

  

Files

File List: 
 File Size
Halloween (2018) x 1616 (2160p) HDR 5.1 x265 10bit Phun Psyz.mkv2.71 GB



Loading...
Comments

There are currently no comments. Be the first one to write something !

Disclaimer: None of the files shown here are actually hosted or transmitted by this server. The links are provided solely by this site's users. The site moderation is also a service provided by the site's users. The administrator of this site (ettv.tv) cannot be held responsible for what its users post, or any other actions of its users. You may not use this site to distribute or download any material when you do not have the legal rights to do so. It is your own responsibility to adhere to these terms.

Sitemap